Сообщения без ответов | Активные темы Текущее время: 2021-12-08 01:04



Ответить на тему  [ 1 сообщение ] 
Девушки-попутчицы / Путешествующие автостопом подростки / Teenage Hitchhikers (Джером С. Кауфман) [1974, Комедия, криминал, эротика, HDRip-AVC / A] 
Автор Сообщение
Почетный пользователь
Почетный пользователь
Аватара пользователя
Раздал: 192.11 ГБ
Скачал: 9.79 ГБ
Ратио: 1018.618


Зарегистрирован: 2020-08-03 09:00
Сообщения: 867
Ответить с цитатой 
#777

Информация о фильме
Название: Девушки-попутчицы / Путешествующие автостопом подростки
Оригинальное название: Teenage Hitchhikers
Год выхода: 1974
Страна: США
Продолжительность: 01:20:02
Перевод : Авторский (одноголосый закадровый) Л. Володарский
Жанр: Комедия, криминал, эротика

Режиссер: Джером С. Кауфман

В ролях: Крис Джордан, Сандра Пибоди, Клер Вилбур, Дженни Лэйн, Прэсли Кэйтон, Маргарет Уиттон, Питер Карю, Кевин Андре, Дональд Хайнс, Билл Ла Монд и др.

О фильме:
Мышка и Пташка парочка нахальных и сексуальных молодых путешественниц автостопом, которые ездят по стране в поисках свободы, новых впечатлений и независимости. Прекрасные и сексуальные девушки используют свои тела в качестве способа обхитрить и получить выгоду. Благо что на их пути встречается масса подозрительных и развратных персонажей...





Файл
Формат: MKV
Качество: HDRip-AVC
Видео: MPEG-4 AVC, 1024x576, 2964 Кбит/с
Аудио: Русский, английский (АС3, 2 ch, 192 Кбит/с)
Субтитры: Нет
x264 [info]: frame I:775 Avg QP:18.70 size: 79424
x264 [info]: frame P:26578 Avg QP:20.49 size: 29888
x264 [info]: frame B:87800 Avg QP:22.16 size: 10518
Общее
Уникальный идентификатор : 167285287387746466684719219901631521640 (0x7DD9F973D25965AACB02889CC0936368)
Полное имя : D:MOVIESTeenage.Hitchhikers.1974.HDRip-AVC.ExKinoRay.mkv
Формат : Matroska
Версия формата : Version 4
Размер файла : 1,87 Гбайт
Продолжительность : 1 ч. 20 м.
Общий поток : 3 350 Кбит/сек
Дата кодирования : UTC 2021-11-21 11:13:31
Программа кодирования : mkvmerge v48.0.0 ('Fortress Around Your Heart') 64-bit
Библиотека кодирования : libebml v1.4.0 + libmatroska v1.6.0

Видео
Идентификатор : 1
Формат : AVC
Формат/Информация : Advanced Video Codec
Профиль формата : High@L4.1
Настройки формата : CABAC / 12 Ref Frames
Параметр CABAC формата : Да
Параметр RefFrames формата : 12 кадров
Идентификатор кодека : V_MPEG4/ISO/AVC
Продолжительность : 1 ч. 20 м.
Битрейт : 2 964 Кбит/сек
Ширина : 1 024 пикселя
Высота : 576 пикселей
Соотношение сторон : 16:9
Режим частоты кадров : Постоянный
Частота кадров : 23,976 (24000/1001) кадра/сек
Цветовое пространство : YUV
Субдискретизация насыщенности : 4:2:0
Битовая глубина : 8 бит
Тип развёртки : Прогрессивная
Бит/(Пиксели*Кадры) : 0.210
Размер потока : 1,66 Гбайт (88%)
Библиотека кодирования : x264 core 161 r3053 c347e7a
Настройки программы : cabac=1 / ref=12 / deblock=1:-3:-2 / analyse=0x3:0x133 / me=umh / subme=10 / psy=1 / psy_rd=1.05:0.13 / mixed_ref=1 / me_range=32 / chroma_me=1 / trellis=2 / 8x8dct=1 / cqm=0 / deadzone=21,11 / fast_pskip=0 / chroma_qp_offset=-3 / threads=6 / lookahead_threads=1 / sliced_threads=0 / nr=0 / decimate=0 / interlaced=0 / bluray_compat=0 / constrained_intra=0 / bframes=10 / b_pyramid=2 / b_adapt=2 / b_bias=0 / direct=3 / weightb=1 / open_gop=0 / weightp=2 / keyint=240 / keyint_min=23 / scenecut=40 / intra_refresh=0 / rc=2pass / mbtree=0 / bitrate=2964 / ratetol=1.0 / qcomp=0.60 / qpmin=0 / qpmax=69 / qpstep=4 / cplxblur=20.0 / qblur=0.5 / ip_ratio=1.40 / pb_ratio=1.30 / aq=1:1.00
Язык : English
Default : Да
Forced : Нет
Цветовой диапазон : Limited
Основные цвета : BT.709
Характеристики трансфера : BT.709
Коэффициенты матрицы : BT.709

Аудио #1
Идентификатор : 2
Формат : AC-3
Формат/Информация : Audio Coding 3
Коммерческое название : Dolby Digital
Идентификатор кодека : A_AC3
Продолжительность : 1 ч. 20 м.
Вид битрейта : Постоянный
Битрейт : 192 Кбит/сек
Каналы : 2 канала
Channel layout : L R
Частота : 48,0 КГц
Частота кадров : 31,250 кадров/сек (1536 SPF)
Метод сжатия : С потерями
Размер потока : 110 Мбайт (6%)
Заголовок : Л. Володарский
Язык : Russian
Service kind : Complete Main
Default : Да
Forced : Нет

Аудио #2
Идентификатор : 3
Формат : AC-3
Формат/Информация : Audio Coding 3
Коммерческое название : Dolby Digital
Идентификатор кодека : A_AC3
Продолжительность : 1 ч. 20 м.
Вид битрейта : Постоянный
Битрейт : 192 Кбит/сек
Каналы : 2 канала
Channel layout : L R
Частота : 48,0 КГц
Частота кадров : 31,250 кадров/сек (1536 SPF)
Метод сжатия : С потерями
Размер потока : 110 Мбайт (6%)
Заголовок : Stereo
Язык : English
Service kind : Complete Main
Default : Нет
Forced : Нет

Меню
00:00:00.000 : :Chapter 1
00:09:22.896 : :Chapter 2
00:16:19.228 : :Chapter 3
00:22:56.542 : :Chapter 4
00:30:57.230 : :Chapter 5
00:39:34.581 : :Chapter 6
00:48:29.115 : :Chapter 7
00:55:15.729 : :Chapter 8
01:08:30.023 : :Chapter 9
01:18:54.980 : :Chapter 10




2021-11-23 08:05
Профиль
  • Торрент
Автор: Amigos Хэш: ---
Добавлен: 2021-11-23 08:05 Приватный: Нет (DHT включён)
Статус: Проверен
Размер: 1.87 ГБ (2 011 123 032 байт)
Изменил:
---
Скачали: 2715 (Раздающих: 0%)
Причина:
---
Здоровье: 100%
Сидеров: 317 Личеров: 11
Скорость раздачи: 0 байт/сек Скорость скачивания: 0 байт/сек
Последний сидер: 11 часов 23 минуты 54 секунды назад Последний личер: 11 часов 23 минуты 54 секунды назад
Для скачивания торрента необходимо зарегистрироваться или войти на трекер.
Показать сообщения за:  Поле сортировки  
Ответить на тему   [ 1 сообщение ] 

Кто сейчас на конференции

Сейчас этот форум просматривают: нет зарегистрированных пользователей и гости: 1


Вы не можете начинать темы
Вы не можете отвечать на сообщения
Вы не можете редактировать свои сообщения
Вы не можете удалять свои сообщения
Вы не можете добавлять вложения

Найти:
Перейти:  
cron
Создано на основе phpBB® Forum Software © phpBB Group
ppkBB3cker v.2.5 © 2008-2021 @ PPK | Icon Theme by Everaldo.com Design Studio
Designed by ST Software.
Русская поддержка phpBB
[ Time : 0.195s | 18 Queries | GZIP : Off ]
Ресурс не предоставляет электронные версии произведений, а занимается лишь коллекционированием и каталогизацией ссылок, присылаемых и публикуемых на форуме нашими читателями. Если вы являетесь правообладателем какого-либо представленного материала и не желаете чтобы ссылка на него находилась в нашем каталоге, свяжитесь с нами и мы незамедлительно удалим её. Файлы для обмена на трекере предоставлены пользователями сайта, и администрация не несёт ответственности за их содержание. Просьба не заливать файлы, защищенные авторскими правами, а также файлы нелегального содержания!
tracker_cron Яндекс.Метрика