Сообщения без ответов | Активные темы Текущее время: 2020-12-05 20:08



Ответить на тему  [ 1 сообщение ] 
Тайна печати дракона (Олег Степченко) [2019, Приключения, WEBRip 1080p | D] 
Автор Сообщение
Модератор-воспитатель
Модератор-воспитатель
Аватара пользователя
Раздал: 7.4 ГБ
Скачал: 1.43 ГБ
Ратио: 5.270


Зарегистрирован: 2019-10-17 21:12
Сообщения: 364
Ответить с цитатой 
Тайна печати дракона


#777

Информация о фильме
Название: Тайна печати дракона
Год выхода: 2019
Страна: Россия, Китай
Переводы: Дублированный
Продолжительность: 01:54:27
Жанр: Приключения

Режиссер: Олег Степченко

В ролях:
Джейсон Флеминг, Арнольд Шварценеггер, Чарльз Дэнс, Джеки Чан, Яо Синтун, Кристофер Фэйрбэнк, Рутгер Хауэр, Мартин Клебба, Юрий Колокольников, Павел Воля и др.

О фильме:
Английский путешественник Джонатан Грин получает от Петра I заказ на изготовление карт Дальнего Востока России. Ему вновь предстоит долгий путь, полный невероятных приключений, который приведет его в Китай. Картограф столкнется с массой головокружительных открытий, неожиданных встреч с диковинными существами, китайскими принцессами, мастерами смертоносных боевых искусств и самим Лун-Ван, Царем всех драконов. Что может быть опаснее, чем посмотреть в глаза Вию? Разве что встретиться с ним вновь. Что на этот раз окажется сильнее — непоколебимый скептицизм ученого или древняя черная магия, уже давно захватившая власть в Восточных землях?





Файл
Качество: WEBRip 1080p
Видео: MPEG-4 AVC, 1920x1080, 4199 kbps, 25,000 fps
Звук: русский, AAC, 2.0 ch, 48 kHz, 160 kbps
Субтитры: русские (форс. вшитые)

Общее
Уникальный идентификатор : 227885910987823779808550085942194092261 (0xAB713AE076A8D070B46D72994FEA38E5)
Полное имя : G:Torrent2TajnaPechatiDrakonaWebRip1080p.mkv
Формат : Matroska
Версия формата : Version 4 / Version 2
Размер файла : 3,49 Гбайт
Продолжительность : 1 ч. 54 м.
Общий поток : 4362 Кбит/сек
Дата кодирования : UTC 2019-11-03 16:02:36
Программа кодирования : mkvmerge v9.5.0 ('Quiet Fire') 64bit
Библиотека кодирования : libebml v1.3.4 + libmatroska v1.4.5

Видео
Идентификатор : 1
Формат : AVC
Формат/Информация : Advanced Video Codec
Профиль формата : High@L4
Настройки формата : CABAC / 4 Ref Frames
Параметр CABAC формата : Да
Параметр RefFrames формата : 4 кадра
Идентификатор кодека : V_MPEG4/ISO/AVC
Продолжительность : 1 ч. 54 м.
Битрейт : 4199 Кбит/сек
Ширина : 1920 пикселей
Высота : 1080 пикселей
Соотношение сторон : 16:9
Режим частоты кадров : Постоянный
Частота кадров : 25,000 кадров/сек
Цветовое пространство : YUV
Субдискретизация насыщенности : 4:2:0
Битовая глубина : 8 бит
Тип развёртки : Прогрессивная
Бит/(Пиксели*Кадры) : 0.081
Размер потока : 3,36 Гбайт (96%)
Язык : Russian
Default : Да
Forced : Нет
Цветовой диапазон : Limited
Основные цвета : BT.709
Характеристики трансфера : BT.709
Коэффициенты матрицы : BT.709

Аудио
Идентификатор : 2
Формат : AAC
Формат/Информация : Advanced Audio Codec
Профиль формата : LC
Идентификатор кодека : A_AAC-2
Продолжительность : 1 ч. 54 м.
Битрейт : 160 Кбит/сек
Каналы : 2 канала
Расположение каналов : Front: L R
Частота : 48,0 КГц
Частота кадров : 46,875 кадров/сек (1024 SPF)
Метод сжатия : С потерями
Задержка видео : 5 мс.
Размер потока : 131 Мбайт (4%)
Язык : Russian
Default : Да
Forced : Нет




Релиз от:


2019-11-04 12:33
Профиль
  • Торрент
Автор: Бродяга Хэш: ---
Добавлен: 2019-11-04 12:33 Приватный: Нет (DHT включён)
Статус:
---
Размер: 3.49 ГБ (3 743 953 268 байт)
Изменил:
---
Скачали: 792 (Раздающих: 0%)
Причина:
---
Здоровье: 100%
Сидеров: 65 Личеров: 0
Скорость раздачи: 0 байт/сек Скорость скачивания: 0 байт/сек
Последний сидер: 1 день 22 часа 16 минут 23 секунды назад Последний личер: Нет
Для скачивания торрента необходимо зарегистрироваться или войти на трекер.
Показать сообщения за:  Поле сортировки  
Ответить на тему   [ 1 сообщение ] 

Кто сейчас на конференции

Сейчас этот форум просматривают: нет зарегистрированных пользователей и гости: 1


Вы не можете начинать темы
Вы не можете отвечать на сообщения
Вы не можете редактировать свои сообщения
Вы не можете удалять свои сообщения
Вы не можете добавлять вложения

Найти:
Перейти:  
Создано на основе phpBB® Forum Software © phpBB Group
ppkBB3cker v.2.5 © 2008-2019 @ PPK | Icon Theme by Everaldo.com Design Studio
Designed by ST Software.
Русская поддержка phpBB
[ Time : 0.175s | 18 Queries | GZIP : Off ]
Ресурс не предоставляет электронные версии произведений, а занимается лишь коллекционированием и каталогизацией ссылок, присылаемых и публикуемых на форуме нашими читателями. Если вы являетесь правообладателем какого-либо представленного материала и не желаете чтобы ссылка на него находилась в нашем каталоге, свяжитесь с нами и мы незамедлительно удалим её. Файлы для обмена на трекере предоставлены пользователями сайта, и администрация не несёт ответственности за их содержание. Просьба не заливать файлы, защищенные авторскими правами, а также файлы нелегального содержания!
tracker_cron Яндекс.Метрика