Сообщения без ответов | Активные темы Текущее время: 2020-11-29 16:14



Ответить на тему  [ 1 сообщение ] 
На Луне (Егор Кончаловский) [2020, Триллер, приключения, WEB-DL 1080p | iTunes] 
Автор Сообщение
В сети
Гл. Модератор
Гл. Модератор
Аватара пользователя
Раздал: 109.9 ГБ
Скачал: 1004.3 МБ
Ратио: 1111.052


Зарегистрирован: 2016-08-18 10:11
Сообщения: 2543
Ответить с цитатой 
На Луне


#777

Информация о фильме
Название: На Луне
Год выхода: 2020
Страна: Россия
Студия: Вертикаль
Продолжительность: 01:39:08
Перевод: Не требуется | iTunes
Жанр: Триллер, приключения

Режиссер: Егор Кончаловский

В ролях:
Иван Архангельский, Виталий Кищенко, Александр Балуев, Федор Бавтриков, Степан Лапин, Варвара Комарова, Сейдулла Молдаханов

О фильме:
Глеб, сын очень важного, обеспеченного и высокопоставленного господина, заслужил своими сомнительными подвигами на грани криминала репутацию сорвиголовы и беспредельщика. Однажды во время ночных гонок по улицам Москвы, уходя от преследования ГИБДД, Глеб не справился с управлением и сбил пешехода. Пока неприятности не улягутся, отец отсылает сына подальше в северные края, туда, где он любил охотиться еще в 90-е и где познакомился с отшельником, живущим в лесу. Именно у него и прячут Глеба. Для молодого человека начинается совершенно иная жизнь с крайне непредсказуемым, мрачным и молчаливым стариком.



Файл
Качество: WEB-DL 1080p
Контейнер: MKV
Видео: MPEG-4 AVC, 1920x804, 4501 Kbps, 24.000 fps
Аудио: Russian: AC3, 48.0 KHz, 6 ch, 384 kbps - iTunes
Субтитры: Нет

Релиз от:



General
Unique ID : 330309066751937993926935937094840499818 (0xF87F36566906FA284AB490B59D6C3E6A)
Complete name : NA_LUNE_2020_WEB-DL_1080p-BLUEBIRD.mkv
Format : Matroska
Format version : Version 4 / Version 2
File size : 3.39 GiB
Duration : 1 h 39 min
Overall bit rate : 4 888 kb/s
Encoded date : UTC 2020-03-29 18:09:02
Writing application : mkvmerge v43.0.0 ('The Quartermaster') 64-bit
Writing library : libebml v1.3.10 + libmatroska v1.5.2
Cover : Yes
Attachments : cover.png

Video
ID : 1
Format : AVC
Format/Info : Advanced Video Codec
Format profile : High@L4
Format settings, CABAC : Yes
Format settings, RefFrames : 5 frames
Codec ID : V_MPEG4/ISO/AVC
Duration : 1 h 39 min
Bit rate : 4 501 kb/s
Width : 1 920 pixels
Height : 804 pixels
Display aspect ratio : 2.40:1
Frame rate mode : Constant
Frame rate : 24.000 FPS
Color space : YUV
Chroma subsampling : 4:2:0
Bit depth : 8 bits
Scan type : Progressive
Bits/(Pixel*Frame) : 0.121
Stream size : 3.12 GiB (92%)
Language : English
Default : Yes
Forced : No
Color range : Limited
Color primaries : BT.709
Transfer characteristics : BT.709
Matrix coefficients : BT.709

Audio
ID : 2
Format : AC-3
Format/Info : Audio Coding 3
Format settings, Endianness : Big
Codec ID : A_AC3
Duration : 1 h 39 min
Bit rate mode : Constant
Bit rate : 384 kb/s
Channel(s) : 6 channels
Channel positions : Front: L C R, Side: L R, LFE
Sampling rate : 48.0 kHz
Frame rate : 31.250 FPS (1536 SPF)
Bit depth : 16 bits
Compression mode : Lossy
Delay relative to video : -42 ms
Stream size : 272 MiB (8%)
Title : [ORIGINAL] DD 5.1 @ 384 kbps (iTunes)
Language : Russian
Service kind : Complete Main
Default : Yes
Forced : No

Menu
00:00:00.000 : en:Глава 1
00:02:22.125 : en:Глава 2
00:08:44.583 : en:Глава 3
00:14:04.249 : en:Глава 4
00:19:54.207 : en:Глава 5
00:28:22.582 : en:Глава 6
00:35:52.290 : en:Глава 7
00:40:57.373 : en:Глава 8
00:46:44.539 : en:Глава 9
00:55:34.414 : en:Глава 10
01:03:24.080 : en:Глава 11
01:10:41.371 : en:Глава 12
01:18:30.162 : en:Глава 13
01:23:30.703 : en:Глава 14
01:33:01.869 : en:Глава 15


2020-03-30 22:17
Профиль
  • Торрент
Автор: Samara Хэш: ---
Добавлен: 2020-03-30 22:17 Приватный: Нет (DHT включён)
Статус:
---
Размер: 3.39 ГБ (3 635 070 368 байт)
Изменил:
---
Скачали: 506 (Раздающих: 0%)
Причина:
---
Здоровье: 100%
Сидеров: 20 Личеров: 2
Скорость раздачи: 0 байт/сек Скорость скачивания: 0 байт/сек
Последний сидер: 26 дней 6 часов 16 минут 30 секунд назад Последний личер: 26 дней 6 часов 16 минут 30 секунд назад
Для скачивания торрента необходимо зарегистрироваться или войти на трекер.
Показать сообщения за:  Поле сортировки  
Ответить на тему   [ 1 сообщение ] 

Кто сейчас на конференции

Сейчас этот форум просматривают: нет зарегистрированных пользователей и гости: 1


Вы не можете начинать темы
Вы не можете отвечать на сообщения
Вы не можете редактировать свои сообщения
Вы не можете удалять свои сообщения
Вы не можете добавлять вложения

Найти:
Перейти:  
Создано на основе phpBB® Forum Software © phpBB Group
ppkBB3cker v.2.5 © 2008-2019 @ PPK | Icon Theme by Everaldo.com Design Studio
Designed by ST Software.
Русская поддержка phpBB
[ Time : 0.179s | 18 Queries | GZIP : Off ]
Ресурс не предоставляет электронные версии произведений, а занимается лишь коллекционированием и каталогизацией ссылок, присылаемых и публикуемых на форуме нашими читателями. Если вы являетесь правообладателем какого-либо представленного материала и не желаете чтобы ссылка на него находилась в нашем каталоге, свяжитесь с нами и мы незамедлительно удалим её. Файлы для обмена на трекере предоставлены пользователями сайта, и администрация не несёт ответственности за их содержание. Просьба не заливать файлы, защищенные авторскими правами, а также файлы нелегального содержания!
tracker_cron Яндекс.Метрика