Сообщения без ответов | Активные темы Текущее время: 2020-12-05 20:49



Ответить на тему  [ 1 сообщение ] 
Очень женские истории (Наташа Меркулова и др.) [2020, Мелодрама, комедия, WEB-DLRip-AVC] 
Автор Сообщение
Администратор
Администратор
Аватара пользователя
Раздал: 1.62 ТБ
Скачал: 32.26 ГБ
Ратио: 1050.504


Зарегистрирован: 2013-08-12 19:04
Сообщения: 2853
Ответить с цитатой 
Очень женские истории


#777

Информация о фильме
Название: Очень женские истории
Год выхода: 2020
Страна: Россия
Студия: Capella Film, Vita Aktiva, Look Film
Продолжительность: 01:32:48
Перевод: Не требуется
Жанр: Мелодрама, комедия

Режиссер: Наташа Меркулова, Лика Ятковская, Анна Саруханова

В ролях:
Анна Михалкова, Виктория Исакова, Виктория Толстоганова, Лукерья Ильяшенко, Анна Слю, Любовь Толкалина, Полина Виторган, Кристина Бабушкина, Диана Дэлль, Анфиса Черных

О фильме:
Чего хотят женщины? Одни — безумной страсти и любви. Другие — успешной карьеры. Третьи — счастья в браке и детей. А кто-то захочет волшебный пульт, который даст возможность одним кликом изменить своего возлюбленного к лучшему. Десять разных женщин, которых объединяет одно: жажда жить по-настоящему.



Файл
Качество: WEB-DLRip-AVC
Формат: MKV
Кодек: MPEG-4 AVC
Видео: 1024x576 (16:9), 25 fps, MPEG-4 AVC, 1865 Кbps avg, 0.126 bit/pixel
Аудио: AC3, 48 kHz, 6 ch, ~384.00 kbps avg | русский |
Субтитры: Отсутствуют

Общее
Уникальный идентификатор : 236639600413317393864197519993124974337 (0xB20721164A7F9532C49B40B97C606F01)
Полное имя : Ochen.zhenskie.istorii.2020.WEB-DLRip.1.46Gb.x264.mkv
Формат : Matroska
Версия формата : Version 4
Размер файла : 1,46 Гбайт
Продолжительность : 1 ч. 32 м.
Общий поток : 2249 Кбит/сек
Название фильма : Очень женские истории (2020)
Дата кодирования : UTC 2020-04-05 04:38:08
Программа кодирования : mkvmerge v41.0.0 ('Smarra') 64-bit
Библиотека кодирования : libebml v1.3.9 + libmatroska v1.5.2
Обложка : Yes
Attachments : cover.jpg

Видео
Идентификатор : 1
Формат : AVC
Формат/Информация : Advanced Video Codec
Профиль формата : High@L4.1
Настройки формата : CABAC / 9 Ref Frames
Параметр CABAC формата : Да
Параметр RefFrames формата : 9 кадров
Идентификатор кодека : V_MPEG4/ISO/AVC
Продолжительность : 1 ч. 32 м.
Битрейт : 1865 Кбит/сек
Ширина : 1024 пикселя
Высота : 576 пикселей
Соотношение сторон : 16:9
Режим частоты кадров : Постоянный
Частота кадров : 25,000 кадров/сек
Цветовое пространство : YUV
Субдискретизация насыщенности : 4:2:0
Битовая глубина : 8 бит
Тип развёртки : Прогрессивная
Бит/(Пиксели*Кадры) : 0.126
Размер потока : 1,21 Гбайт (83%)
Заголовок : #stillet
Библиотека кодирования : x264 core 152 r2851bm ba24899
Настройки программы : cabac=1 / ref=9 / deblock=1:-3:-3 / analyse=0x3:0x113 / me=umh / subme=11 / psy=1 / psy_rd=1.00:0.15 / mixed_ref=1 / me_range=32 / chroma_me=1 / trellis=2 / 8x8dct=1 / cqm=0 / deadzone=21,11 / fast_pskip=0 / chroma_qp_offset=-3 / threads=8 / lookahead_threads=3 / sliced_threads=0 / nr=0 / decimate=0 / interlaced=0 / bluray_compat=0 / constrained_intra=0 / bframes=10 / b_pyramid=2 / b_adapt=2 / b_bias=0 / direct=3 / weightb=1 / open_gop=0 / weightp=2 / keyint=240 / keyint_min=24 / scenecut=40 / intra_refresh=0 / rc=2pass / mbtree=0 / bitrate=1865 / ratetol=1.0 / qcomp=0.60 / qpmin=0 / qpmax=69 / qpstep=4 / cplxblur=20.0 / qblur=0.5 / ip_ratio=1.40 / pb_ratio=1.30 / aq=1:1.00
Язык : Russian
Default : Да
Forced : Нет

Аудио
Идентификатор : 2
Формат : AC-3
Формат/Информация : Audio Coding 3
Коммерческое название : Dolby Digital
Идентификатор кодека : A_AC3
Продолжительность : 1 ч. 32 м.
Вид битрейта : Постоянный
Битрейт : 384 Кбит/сек
Каналы : 6 каналов
ChannelLayout : L R C LFE Ls Rs
Частота : 48,0 КГц
Частота кадров : 31,250 кадров/сек (1536 SPF)
Метод сжатия : С потерями
Размер потока : 255 Мбайт (17%)
Язык : Russian
Default : Да
Forced : Нет




2020-04-05 14:44
Профиль
  • Торрент
Автор: Admiral Хэш: ---
Добавлен: 2020-04-05 14:44 Приватный: Нет (DHT включён)
Статус:
---
Размер: 1.46 ГБ (1 564 949 898 байт)
Изменил:
---
Скачали: 585 (Раздающих: 0%)
Причина:
---
Здоровье: 100%
Сидеров: 17 Личеров: 1
Скорость раздачи: 0 байт/сек Скорость скачивания: 0 байт/сек
Последний сидер: 1 день 22 часа 57 минут 5 секунд назад Последний личер: 1 день 22 часа 57 минут 5 секунд назад
Для скачивания торрента необходимо зарегистрироваться или войти на трекер.
Показать сообщения за:  Поле сортировки  
Ответить на тему   [ 1 сообщение ] 

Кто сейчас на конференции

Сейчас этот форум просматривают: нет зарегистрированных пользователей и гости: 1


Вы не можете начинать темы
Вы не можете отвечать на сообщения
Вы не можете редактировать свои сообщения
Вы не можете удалять свои сообщения
Вы не можете добавлять вложения

Найти:
Перейти:  
Создано на основе phpBB® Forum Software © phpBB Group
ppkBB3cker v.2.5 © 2008-2019 @ PPK | Icon Theme by Everaldo.com Design Studio
Designed by ST Software.
Русская поддержка phpBB
[ Time : 0.173s | 18 Queries | GZIP : Off ]
Ресурс не предоставляет электронные версии произведений, а занимается лишь коллекционированием и каталогизацией ссылок, присылаемых и публикуемых на форуме нашими читателями. Если вы являетесь правообладателем какого-либо представленного материала и не желаете чтобы ссылка на него находилась в нашем каталоге, свяжитесь с нами и мы незамедлительно удалим её. Файлы для обмена на трекере предоставлены пользователями сайта, и администрация не несёт ответственности за их содержание. Просьба не заливать файлы, защищенные авторскими правами, а также файлы нелегального содержания!
tracker_cron Яндекс.Метрика