Сообщения без ответов | Активные темы Текущее время: 2020-12-05 20:28



Ответить на тему  [ 1 сообщение ] 
Спутник (Егор Абраменко) [2020, Фантастика, триллер, драма, WEB-DLRip 720p / iTunes] 
Автор Сообщение
Гл. Модератор
Гл. Модератор
Аватара пользователя
Раздал: 115.9 ГБ
Скачал: 3.22 ГБ
Ратио: 1034.951


Зарегистрирован: 2016-08-18 10:11
Сообщения: 2571
Ответить с цитатой 
Спутник


#777

Информация о фильме
Название: Спутник
Год выхода: 2020
Страна: Россия
Студия: Кинокомпания «Водород», Национальная Медиа Группа (НМГ), Art Pictures Studio, Hype Film, Sony Pictures, Канал СТС
Продолжительность: 01:53:42
Перевод: Не требуется | iTunes
Жанр: Фантастика, триллер, драма

Режиссер: Егор Абраменко

В ролях:
Оксана Акиньшина, Пётр Фёдоров, Фёдор Бондарчук, Антон Васильев, Павел Устинов и др.

О фильме:
СССР, 1983 год. На землю возвращается космический аппарат, но от людей скрывают, что из двух космонавтов живым возвращается только один. Что произошло на борту, остается загадкой, но факты указывают на то, что космонавт столкнулся в полете с новой формой жизни и вернулся на землю не совсем один… Нейрофизиолог Татьяна Климова пытается докопаться до правды и спасти героя, ставшего для нее небезразличным.



Файл
Формат: MKV
Качество: WEB-DLRip 720p [SPUTNIK_2020_WEB-DL_1080p-BLUEBIRD]
Видео: 1272x534 (2,40:1), 24 fps, x264, ~1949 Кbps
Аудио: AC3, 48 kHz, 6 ch, ~384.00 kbps
Субтитры: Отсутствуют

x264 [info]: frame I:1023 Avg QP:14.96 size: 58182
x264 [info]: frame P:32241 Avg QP:16.21 size: 22479
x264 [info]: frame B:130465 Avg QP:18.90 size: 6730
x264 [info]: consecutive B-frames: 0.9% 0.9% 2.0% 22.0% 18.3% 51.0% 2.5% 1.8% 0.2% 0.2% 0.2% 0.1%

General
Format : Matroska
Format version : Version 4
File size : 1.85 GiB
Duration : 1 h 53 min
Overall bit rate : 2 335 kb/s
Movie name : Спутник.(2020).WEB-DLRip.720p.[-=DoMiNo=-]
Encoded date : UTC 2020-05-25 20:56:39
Writing application : mkvmerge v46.0.0 ('No Deeper Escape') 64-bit
Writing library : libebml v1.3.10 + libmatroska v1.5.2
Cover : Yes
Attachments : cover.jpg / cover 2.jpg

Video
ID : 1
Format : AVC
Format/Info : Advanced Video Codec
Format profile : High@L4.1
Format settings : CABAC / 11 Ref Frames
Format settings, CABAC : Yes
Format settings, Reference : 11 frames
Codec ID : V_MPEG4/ISO/AVC
Duration : 1 h 53 min
Bit rate : 1 949 kb/s
Width : 1 272 pixels
Height : 534 pixels
Display aspect ratio : 2.40:1
Frame rate mode : Constant
Frame rate : 24.000 FPS
Color space : YUV
Chroma subsampling : 4:2:0
Bit depth : 8 bits
Scan type : Progressive
Bits/(Pixel*Frame) : 0.120
Stream size : 1.55 GiB (83%)
Title : RIP BY -=DoMiNo=-
Writing library : x264 core 160 r3000 33f9e14
Encoding settings : cabac=1 / ref=11 / deblock=1:-2:-2 / analyse=0x3:0x133 / me=umh / subme=10 / psy=1 / psy_rd=1.00:0.20 / mixed_ref=1 / me_range=32 / chroma_me=1 / trellis=2 / 8x8dct=1 / cqm=0 / deadzone=21,11 / fast_pskip=1 / chroma_qp_offset=-3 / threads=6 / lookahead_threads=1 / sliced_threads=0 / nr=0 / decimate=1 / interlaced=0 / bluray_compat=0 / constrained_intra=0 / bframes=11 / b_pyramid=2 / b_adapt=2 / b_bias=0 / direct=1 / weightb=1 / open_gop=0 / weightp=2 / keyint=250 / keyint_min=23 / scenecut=40 / intra_refresh=0 / rc_lookahead=60 / rc=crf / mbtree=0 / crf=19.0 / qcomp=0.60 / qpmin=0 / qpmax=69 / qpstep=4 / vbv_maxrate=50000 / vbv_bufsize=62500 / crf_max=0.0 / nal_hrd=none / filler=0 / ip_ratio=1.40 / pb_ratio=1.30 / aq=2:1.00
Language : English
Default : Yes
Forced : No
Color range : Limited
Color primaries : BT.709
Transfer characteristics : BT.709
Matrix coefficients : BT.709

Audio
ID : 2
Format : AC-3
Format/Info : Audio Coding 3
Commercial name : Dolby Digital
Codec ID : A_AC3
Duration : 1 h 53 min
Bit rate mode : Constant
Bit rate : 384 kb/s
Channel(s) : 6 channels
Channel layout : L R C LFE Ls Rs
Sampling rate : 48.0 kHz
Frame rate : 31.250 FPS (1536 SPF)
Compression mode : Lossy
Stream size : 312 MiB (16%)
Title : [ORIGINAL] DD 5.1 @ 384 kbps (iTunes)
Language : Russian
Service kind : Complete Main
Default : Yes
Forced : No

Menu
00:00:00.000 : en:Глава 1
00:07:56.000 : en:Глава 2
00:16:07.125 : en:Глава 3
00:25:32.208 : en:Глава 4
00:34:06.291 : en:Глава 5
00:43:06.332 : en:Глава 6
00:51:42.040 : en:Глава 7
01:00:47.498 : en:Глава 8
01:08:56.998 : en:Глава 9
01:17:25.581 : en:Глава 10
01:27:14.206 : en:Глава 11
01:35:43.581 : en:Глава 12


***Релиз от: -=DoMiNo=-


2020-05-26 22:29
Профиль
  • Торрент
Автор: Samara Хэш: ---
Добавлен: 2020-05-26 22:29 Приватный: Нет (DHT включён)
Статус: Проверен
Размер: 1.85 ГБ (1 991 361 631 байт)
Изменил:
---
Скачали: 3457 (Раздающих: 0%)
Причина:
---
Здоровье: 100%
Сидеров: 453 Личеров: 11
Скорость раздачи: 0 байт/сек Скорость скачивания: 0 байт/сек
Последний сидер: 1 день 22 часа 36 минут 22 секунды назад Последний личер: 1 день 22 часа 36 минут 22 секунды назад
Для скачивания торрента необходимо зарегистрироваться или войти на трекер.
Показать сообщения за:  Поле сортировки  
Ответить на тему   [ 1 сообщение ] 

Кто сейчас на конференции

Сейчас этот форум просматривают: нет зарегистрированных пользователей и гости: 1


Вы не можете начинать темы
Вы не можете отвечать на сообщения
Вы не можете редактировать свои сообщения
Вы не можете удалять свои сообщения
Вы не можете добавлять вложения

Найти:
Перейти:  
Создано на основе phpBB® Forum Software © phpBB Group
ppkBB3cker v.2.5 © 2008-2019 @ PPK | Icon Theme by Everaldo.com Design Studio
Designed by ST Software.
Русская поддержка phpBB
[ Time : 0.177s | 18 Queries | GZIP : Off ]
Ресурс не предоставляет электронные версии произведений, а занимается лишь коллекционированием и каталогизацией ссылок, присылаемых и публикуемых на форуме нашими читателями. Если вы являетесь правообладателем какого-либо представленного материала и не желаете чтобы ссылка на него находилась в нашем каталоге, свяжитесь с нами и мы незамедлительно удалим её. Файлы для обмена на трекере предоставлены пользователями сайта, и администрация не несёт ответственности за их содержание. Просьба не заливать файлы, защищенные авторскими правами, а также файлы нелегального содержания!
tracker_cron Яндекс.Метрика