Сообщения без ответов | Активные темы Текущее время: 2020-12-05 20:38



Ответить на тему  [ 1 сообщение ] 
Тень звезды (Дмитрий Губарев) [2020, Мелодрама, музыка, драма, детектив, WEB-DL 1080p] 
Автор Сообщение
Релизер
Релизер
Аватара пользователя
Раздал: 74.84 ГБ
Скачал: 1.65 ГБ
Ратио: 1044.311


Зарегистрирован: 2020-05-15 00:14
Сообщения: 468
Ответить с цитатой 
#777
Оригинальное название: Тень звезды
Год выпуска: 2020
Страна: Россия
Студия: Мотор Фильм Студия
Продолжительность: 01:31:07
Перевод: Не требуется
Жанр: Мелодрама, музыка, драма, детектив

Режиссер: Дмитрий Губарев

В ролях:
Павел Прилучный, Александра Черкасова-Служитель, Кирилл Нагиев, Юлия Франц, Владимир Сычёв, Павел Штонденко, Надежда Мельникова, Владислав Спирин, Кристина Бойцова

Описание:
Популярный рэпер приезжает на гастроли в Питер. Его обожают и ждут фанаты, он на пике славы, он уверен в себе. Вместе со звездой приезжают его менеджер, музыканты и девушка. Неожиданно на музыканта совершается покушение. Ему чудом удаётся избежать смерти, но его менеджер решает нанять охранника. Складывается так, что охранником оказывается… девушка. Она — профессионал своего дела, но в брутальном мире рэпа женщине приходится сложно. Телохранитель разбирается в запутанных отношениях звезды и понимает, что каждый из окружения рэпера мог бы желать его смерти. В решающий момент «бодигард» спасает ему жизнь. Однако, она узнала слишком много, и музыканту приходит время спасать своего телохранителя.




Формат: MKV
Качество: WEB-DL 1080p
Видео: MPEG-4 AVC, 1920x808 (2.40:1), 25.000 fps, 5115 Kbps, 0.137 bit/pixel
Аудио : 48 kHz, AC3, 5.1, 384 Kbps | RUS |
General
Unique ID : 201768850186564648076365317705567575427 (0x97CB445CDB729E2BA60F95D581341D83)
Complete name : F:Ten.Zvezdi.WEB-DL.1080p.ExKinoRay.mkv
Format : Matroska
Format version : Version 4
File size : 3.50 GiB
Duration : 1 h 31 min
Overall bit rate mode : Variable
Overall bit rate : 5 501 kb/s
Movie name : Тень звезды 2020 from ExKinoRay
Encoded date : UTC 2020-09-24 22:22:59
Writing application : mkvmerge v7.3.0 ('Nouages') 64bit built on Oct 22 2014 18:53:34
Writing library : libebml v1.3.0 + libmatroska v1.4.1

Video
ID : 1
Format : AVC
Format/Info : Advanced Video Codec
Format profile : High@L4
Format settings : CABAC / 4 Ref Frames
Format settings, CABAC : Yes
Format settings, Reference : 4 frames
Codec ID : V_MPEG4/ISO/AVC
Duration : 1 h 31 min
Bit rate mode : Variable
Bit rate : 5 115 kb/s
Maximum bit rate : 40.0 Mb/s
Width : 1 920 pixels
Height : 808 pixels
Display aspect ratio : 2.40:1
Frame rate mode : Constant
Frame rate : 24.000 FPS
Color space : YUV
Chroma subsampling : 4:2:0
Bit depth : 8 bits
Scan type : Progressive
Bits/(Pixel*Frame) : 0.137
Stream size : 3.26 GiB (93%)
Language : Russian
Default : Yes
Forced : No

Audio
ID : 2
Format : AC-3
Format/Info : Audio Coding 3
Commercial name : Dolby Digital
Codec ID : A_AC3
Duration : 1 h 31 min
Bit rate mode : Constant
Bit rate : 384 kb/s
Channel(s) : 6 channels
Channel layout : L R C LFE Ls Rs
Sampling rate : 48.0 kHz
Frame rate : 31.250 FPS (1536 SPF)
Compression mode : Lossy
Stream size : 250 MiB (7%)
Language : Russian
Service kind : Complete Main
Default : Yes
Forced : No


Релиз от:
Автор релиза:


2020-09-25 21:17
Профиль
  • Торрент
Автор: Zebra Хэш: ---
Добавлен: 2020-09-25 21:17 Приватный: Нет (DHT включён)
Статус: Проверен
Размер: 3.5 ГБ (3 759 841 423 байт)
Изменил:
---
Скачали: 2369 (Раздающих: 0%)
Причина:
---
Здоровье: 100%
Сидеров: 285 Личеров: 43
Скорость раздачи: 0 байт/сек Скорость скачивания: 0 байт/сек
Последний сидер: 1 день 22 часа 46 минут 25 секунд назад Последний личер: 1 день 22 часа 46 минут 25 секунд назад
Для скачивания торрента необходимо зарегистрироваться или войти на трекер.
Показать сообщения за:  Поле сортировки  
Ответить на тему   [ 1 сообщение ] 

Кто сейчас на конференции

Сейчас этот форум просматривают: нет зарегистрированных пользователей и гости: 1


Вы не можете начинать темы
Вы не можете отвечать на сообщения
Вы не можете редактировать свои сообщения
Вы не можете удалять свои сообщения
Вы не можете добавлять вложения

Найти:
Перейти:  
Создано на основе phpBB® Forum Software © phpBB Group
ppkBB3cker v.2.5 © 2008-2019 @ PPK | Icon Theme by Everaldo.com Design Studio
Designed by ST Software.
Русская поддержка phpBB
[ Time : 0.179s | 16 Queries | GZIP : Off ]
Ресурс не предоставляет электронные версии произведений, а занимается лишь коллекционированием и каталогизацией ссылок, присылаемых и публикуемых на форуме нашими читателями. Если вы являетесь правообладателем какого-либо представленного материала и не желаете чтобы ссылка на него находилась в нашем каталоге, свяжитесь с нами и мы незамедлительно удалим её. Файлы для обмена на трекере предоставлены пользователями сайта, и администрация не несёт ответственности за их содержание. Просьба не заливать файлы, защищенные авторскими правами, а также файлы нелегального содержания!
tracker_cron Яндекс.Метрика