Сообщения без ответов | Активные темы Текущее время: 2020-12-05 21:46



Ответить на тему  [ 1 сообщение ] 
Смотри как я (Егор Сальников) [2020, Комедия, приключения, WEB-DL 1080p / iTunes] 
Автор Сообщение
Администратор
Администратор
Аватара пользователя
Раздал: 1.62 ТБ
Скачал: 32.26 ГБ
Ратио: 1050.504


Зарегистрирован: 2013-08-12 19:04
Сообщения: 2853
Ответить с цитатой 
Смотри как я


#777

Информация о фильме
Название: Смотри как я
Год выхода: 2020
Страна: Россия
Студия: Грамани Фильм
Продолжительность: 01:32:30
Перевод: Не требуется | iTunes
Жанр: Комедия, приключения

Режиссер: Егор Сальников

В ролях:
Ольга Турчак, Михаил Мещеряков, Александр Самойленко, Дмитрий Мухамадеев, Елена Бирюкова, Евгений Сытый, Сергей Аброскин, Наталья Щукина, Мария Иващенко, Ярослав Жалнин

О фильме:
Оля – безбашенная девчонка, сбежавшая из детдома. Максим – слепой парень, уставший от причуд богатого отца. Случайно встретившись, ребята решают бросить все и уехать на море. Почему бы и нет — у Максима папины деньги, у Оли сумасшедшая тяга к приключениям. Они молоды и хотят свободы, вот только видят ее каждый по-своему. Но от этого путешествие становится только ярче и увлекательнее!



Файл
Качество: WEB-DL 1080p
Контейнер: MKV
Видео: MPEG-4 AVC, 1920x804, 4687 Kbps, 24.000 fps
Аудио: Russian: AC3, 48.0 KHz, 6 ch, 384 kbps - iTunes
Субтитры: Нет

Релиз от:

General
Unique ID : 235486100503141185781430767866410786957 (0xB128F9268ED82A236A03F9E5ACC5608D)
Complete name : SMOTRI_KAK_JA_2020_WEB-DL_1080p-BLUEBIRD.mkv
Format : Matroska
Format version : Version 4
File size : 3.28 GiB
Duration : 1 h 32 min
Overall bit rate : 5 073 kb/s
Encoded date : UTC 2020-09-26 10:24:38
Writing application : mkvmerge v43.0.0 ('The Quartermaster') 64-bit
Writing library : libebml v1.3.10 + libmatroska v1.5.2
Cover : Yes
Attachments : cover.jpg

Video
ID : 1
Format : AVC
Format/Info : Advanced Video Codec
Format profile : High@L4
Format settings : CABAC / 5 Ref Frames
Format settings, CABAC : Yes
Format settings, Reference : 5 frames
Codec ID : V_MPEG4/ISO/AVC
Duration : 1 h 32 min
Bit rate : 4 687 kb/s
Width : 1 920 pixels
Height : 804 pixels
Display aspect ratio : 2.40:1
Frame rate mode : Constant
Frame rate : 24.000 FPS
Color space : YUV
Chroma subsampling : 4:2:0
Bit depth : 8 bits
Scan type : Progressive
Bits/(Pixel*Frame) : 0.127
Stream size : 3.03 GiB (92%)
Language : English
Default : Yes
Forced : No
Color range : Limited
Color primaries : BT.709
Transfer characteristics : BT.709
Matrix coefficients : BT.709

Audio
ID : 2
Format : AC-3
Format/Info : Audio Coding 3
Commercial name : Dolby Digital
Codec ID : A_AC3
Duration : 1 h 32 min
Bit rate mode : Constant
Bit rate : 384 kb/s
Channel(s) : 6 channels
Channel layout : L R C LFE Ls Rs
Sampling rate : 48.0 kHz
Frame rate : 31.250 FPS (1536 SPF)
Bit depth : 16 bits
Compression mode : Lossy
Stream size : 254 MiB (8%)
Title : [ORIGINAL] DD 5.1 @ 384 kbps (iTunes)
Language : Russian
Service kind : Complete Main
Default : Yes
Forced : No

Menu
00:00:00.000 : :Глава 1
00:08:07.125 : :Глава 2
00:16:27.291 : :Глава 3
00:24:43.999 : :Глава 4
00:33:10.874 : :Глава 5
00:41:46.289 : :Глава 6
00:50:09.331 : :Глава 7
00:58:26.996 : :Глава 8
01:06:45.704 : :Глава 9
01:14:42.537 : :Глава 10
01:23:19.787 : :Глава 11


2020-09-26 22:12
Профиль
  • Торрент
Автор: Admiral Хэш: ---
Добавлен: 2020-09-26 22:12 Приватный: Нет (DHT включён)
Статус: Проверен
Размер: 3.28 ГБ (3 519 746 577 байт)
Изменил:
---
Скачали: 2503 (Раздающих: 0%)
Причина:
---
Здоровье: 100%
Сидеров: 595 Личеров: 219
Скорость раздачи: 0 байт/сек Скорость скачивания: 0 байт/сек
Последний сидер: 1 день 23 часа 54 минуты 25 секунд назад Последний личер: 1 день 23 часа 54 минуты 25 секунд назад
Для скачивания торрента необходимо зарегистрироваться или войти на трекер.
Показать сообщения за:  Поле сортировки  
Ответить на тему   [ 1 сообщение ] 

Кто сейчас на конференции

Сейчас этот форум просматривают: нет зарегистрированных пользователей и гости: 1


Вы не можете начинать темы
Вы не можете отвечать на сообщения
Вы не можете редактировать свои сообщения
Вы не можете удалять свои сообщения
Вы не можете добавлять вложения

Найти:
Перейти:  
Создано на основе phpBB® Forum Software © phpBB Group
ppkBB3cker v.2.5 © 2008-2019 @ PPK | Icon Theme by Everaldo.com Design Studio
Designed by ST Software.
Русская поддержка phpBB
[ Time : 0.176s | 18 Queries | GZIP : Off ]
Ресурс не предоставляет электронные версии произведений, а занимается лишь коллекционированием и каталогизацией ссылок, присылаемых и публикуемых на форуме нашими читателями. Если вы являетесь правообладателем какого-либо представленного материала и не желаете чтобы ссылка на него находилась в нашем каталоге, свяжитесь с нами и мы незамедлительно удалим её. Файлы для обмена на трекере предоставлены пользователями сайта, и администрация не несёт ответственности за их содержание. Просьба не заливать файлы, защищенные авторскими правами, а также файлы нелегального содержания!
tracker_cron Яндекс.Метрика