Сообщения без ответов | Активные темы Текущее время: 2020-12-05 20:30



Ответить на тему  [ 1 сообщение ] 
Красотка в ударе (Яна Гладких) [2020, Комедия, WEB-DL 720p] 
Автор Сообщение
Релизер
Релизер
Аватара пользователя
Раздал: 78.09 ГБ
Скачал: 10.09 ГБ
Ратио: 1007.138


Зарегистрирован: 2020-05-07 22:22
Сообщения: 325
Ответить с цитатой 
Красотка в ударе


#777

Оригинальное название: Красотка в ударе
Год выпуска: 2020
Страна: Россия
Продолжительность: 01:36:20
Перевод: Не требуется
Жанр: Комедия

Режиссер: Яна Гладких

В ролях:
Юлия Александрова, Лариса Кокоева, Максим Блинов, Андрей Бурковский, Григорий Калинин, Павел Ворожцов, Яна Кошкина, Елена Шевченко, Янина Студилина, Таисия Вилкова

Описание:
Полина не очень довольна своей жизнью и своей внешностью. Она считает себя непривлекательной, пока однажды не ударяется головой. Очнувшись, Полина видит в зеркале эффектную красотку, и ее поведение круто меняется. Юлия Александрова демонстрирует чудеса преображения в легкой оптимистичной комедии «Красотка в ударе». Полнометражный режиссерский дебют актрисы Яны Гладких по сценарию Евгении Хрипковой («(НЕ)идеальный мужчина», «Звоните ДиКаприо!», «Сладкая жизнь»). Жизнь Полины разделилась на «до» и «после» сильного удара по голове. «До» – это брак с неблагодарным недотепой, «мужская» работа в грубой мужской компании, невзрачная одежда и невысокое мнение о самой себе. Но под заношенными и мешковатыми кофтами еще живет простая женская мечта о красивой внешности и восхищенных взглядах вслед. И однажды эта мечта чудом сбывается – по крайней мере, так думает сама Полина. Крепко получив по затылку, она теряет сознание, а после пробуждения не может оторвать взгляд от зеркала. Неотразимая, сногсшибательная, роскошная – такой она видит себя теперь и даже вести себя начинает соответствующе. Осталось сделать красивой и всю свою жизнь, но для «новой» решительной Полины это не проблема.





Формат: MKV
Качество: WEB-DL 720p
Видео: MPEG-4 AVC, 1280x692 (1.85:1), 25.000 fps, 2559 Kbps, 0.116 bit/pixel
Аудио : 48 kHz, AC3, 2.0, 384 Kbps | RUS |

General
Unique ID : 192294681787241133317664099845250967083 (0x90AA9BCBE6E3A7BBB9BCC41F6487662B)
Complete name : D:Krasotka.v.Udare.2020.WEB-DL.720p.ExKinoRay.mkv
Format : Matroska
Format version : Version 4
File size : 1.98 GiB
Duration : 1 h 36 min
Overall bit rate : 2 945 kb/s
Movie name : Красотка в ударе 2020 from ExKinoRay
Encoded date : UTC 2020-09-30 23:01:01
Writing application : mkvmerge v7.3.0 ('Nouages') 64bit built on Oct 22 2014 18:53:34
Writing library : libebml v1.3.0 + libmatroska v1.4.1

Video
ID : 1
Format : AVC
Format/Info : Advanced Video Codec
Format profile : High@L4
Format settings : CABAC / 4 Ref Frames
Format settings, CABAC : Yes
Format settings, Reference : 4 frames
Codec ID : V_MPEG4/ISO/AVC
Duration : 1 h 36 min
Bit rate : 2 559 kb/s
Width : 1 280 pixels
Height : 692 pixels
Display aspect ratio : 1.85:1
Frame rate mode : Constant
Frame rate : 25.000 FPS
Color space : YUV
Chroma subsampling : 4:2:0
Bit depth : 8 bits
Scan type : Progressive
Bits/(Pixel*Frame) : 0.116
Stream size : 1.72 GiB (87%)
Language : Russian
Default : Yes
Forced : No

Audio
ID : 2
Format : AC-3
Format/Info : Audio Coding 3
Commercial name : Dolby Digital
Codec ID : A_AC3
Duration : 1 h 36 min
Bit rate mode : Constant
Bit rate : 384 kb/s
Channel(s) : 2 channels
Channel layout : L R
Sampling rate : 48.0 kHz
Frame rate : 31.250 FPS (1536 SPF)
Compression mode : Lossy
Stream size : 265 MiB (13%)
Language : Russian
Service kind : Complete Main
Default : Yes
Forced : No



Релиз от:


Автор релиза:


2020-10-01 08:56
Профиль
  • Торрент
Автор: Klingon Хэш: ---
Добавлен: 2020-10-01 08:56 Приватный: Нет (DHT включён)
Статус: Проверен
Размер: 1.98 ГБ (2 128 153 331 байт)
Изменил:
---
Скачали: 28368 (Раздающих: 0%)
Причина:
---
Здоровье: 100%
Сидеров: 1511 Личеров: 544
Скорость раздачи: 0 байт/сек Скорость скачивания: 0 байт/сек
Последний сидер: 1 день 22 часа 38 минут 5 секунд назад Последний личер: 1 день 22 часа 38 минут 5 секунд назад
Для скачивания торрента необходимо зарегистрироваться или войти на трекер.
Показать сообщения за:  Поле сортировки  
Ответить на тему   [ 1 сообщение ] 

Кто сейчас на конференции

Сейчас этот форум просматривают: нет зарегистрированных пользователей и гости: 1


Вы не можете начинать темы
Вы не можете отвечать на сообщения
Вы не можете редактировать свои сообщения
Вы не можете удалять свои сообщения
Вы не можете добавлять вложения

Найти:
Перейти:  
Создано на основе phpBB® Forum Software © phpBB Group
ppkBB3cker v.2.5 © 2008-2019 @ PPK | Icon Theme by Everaldo.com Design Studio
Designed by ST Software.
Русская поддержка phpBB
[ Time : 0.186s | 18 Queries | GZIP : Off ]
Ресурс не предоставляет электронные версии произведений, а занимается лишь коллекционированием и каталогизацией ссылок, присылаемых и публикуемых на форуме нашими читателями. Если вы являетесь правообладателем какого-либо представленного материала и не желаете чтобы ссылка на него находилась в нашем каталоге, свяжитесь с нами и мы незамедлительно удалим её. Файлы для обмена на трекере предоставлены пользователями сайта, и администрация не несёт ответственности за их содержание. Просьба не заливать файлы, защищенные авторскими правами, а также файлы нелегального содержания!
tracker_cron Яндекс.Метрика