Сообщения без ответов | Активные темы Текущее время: 2020-11-29 16:02



Ответить на тему  [ 1 сообщение ] 
Котёл (Ева Басс) [2020, Драма, WEB-DL 720p] 
Автор Сообщение
Релизер
Релизер
Аватара пользователя
Раздал: 89.16 ГБ
Скачал: 5.61 ГБ
Ратио: 1015.093


Зарегистрирован: 2018-02-05 17:13
Сообщения: 402
Ответить с цитатой 
Котёл


#777

Оригинальное название: Котел
Год выпуска: 2020
Выпущено: Россия, KoKoKo Production
Страна: Россия
Студия: KoKoKo Production
Продолжительность: 01:36:49
Перевод: Не требуется
Жанр: Драма

Режиссер: Ева Басс

В ролях: Александр Кузнецов, Александра Ревенко, Василий Буткевич, Артур Илюшкин, Алексей Филимонов, Артём Дубра

Описание:
Савелий, владелец компьютерного клуба «Котёл», был доволен своей жизнью на Районе — до момента подозрительного самоубийства товарища. Под впечатлением от этой трагедии Савелий решил порвать с окружением и убраться с Района подальше. Но старые друзья и многочисленные, порой абсурдные, обстоятельства не хотят отпускать героя.



Формат: MKV
Качество: WEB-DL 720p
Видео: MPEG-4 AVC, 1280x720 (16:9), 24.000 fps, 2559 Kbps, 0.116 bit/pixel
Аудио : 48 kHz, AC3, 5.1, 384 Kbps | RUS |
General
Unique ID : 183365584628928855706455907371309179160 (0x89F2ED513A65681C9B3CA3899F85A118)
Complete name : D:Kotel.2020.WEB-DL.720p.ExKinoRay.mkv
Format : Matroska
Format version : Version 4
File size : 1.99 GiB
Duration : 1 h 36 min
Overall bit rate : 2 944 kb/s
Movie name : Котел 2020 from ExKinoRay
Encoded date : UTC 2020-09-30 22:38:59
Writing application : mkvmerge v7.3.0 ('Nouages') 64bit built on Oct 22 2014 18:53:34
Writing library : libebml v1.3.0 + libmatroska v1.4.1

Video
ID : 1
Format : AVC
Format/Info : Advanced Video Codec
Format profile : High@L4
Format settings : CABAC / 4 Ref Frames
Format settings, CABAC : Yes
Format settings, Reference : 4 frames
Codec ID : V_MPEG4/ISO/AVC
Duration : 1 h 36 min
Bit rate : 2 559 kb/s
Width : 1 280 pixels
Height : 720 pixels
Display aspect ratio : 16:9
Frame rate mode : Constant
Frame rate : 24.000 FPS
Color space : YUV
Chroma subsampling : 4:2:0
Bit depth : 8 bits
Scan type : Progressive
Bits/(Pixel*Frame) : 0.116
Stream size : 1.73 GiB (87%)
Language : Russian
Default : Yes
Forced : No

Audio
ID : 2
Format : AC-3
Format/Info : Audio Coding 3
Commercial name : Dolby Digital
Codec ID : A_AC3
Duration : 1 h 36 min
Bit rate mode : Constant
Bit rate : 384 kb/s
Channel(s) : 6 channels
Channel layout : L R C LFE Ls Rs
Sampling rate : 48.0 kHz
Frame rate : 31.250 FPS (1536 SPF)
Compression mode : Lossy
Stream size : 266 MiB (13%)
Language : Russian
Service kind : Complete Main
Default : Yes
Forced : No



Релиз от:

Автор релиза:


2020-10-01 20:04
Профиль
  • Торрент
Автор: Travnik Хэш: ---
Добавлен: 2020-10-01 20:04 Приватный: Нет (DHT включён)
Статус: Проверен
Размер: 1.99 ГБ (2 137 675 523 байт)
Изменил:
---
Скачали: 3678 (Раздающих: 0%)
Причина:
---
Здоровье: 100%
Сидеров: 135 Личеров: 1
Скорость раздачи: 0 байт/сек Скорость скачивания: 0 байт/сек
Последний сидер: 19 дней 20 часов 15 минут 23 секунды назад Последний личер: 19 дней 20 часов 15 минут 23 секунды назад
Для скачивания торрента необходимо зарегистрироваться или войти на трекер.
Показать сообщения за:  Поле сортировки  
Ответить на тему   [ 1 сообщение ] 

Кто сейчас на конференции

Сейчас этот форум просматривают: нет зарегистрированных пользователей и гости: 1


Вы не можете начинать темы
Вы не можете отвечать на сообщения
Вы не можете редактировать свои сообщения
Вы не можете удалять свои сообщения
Вы не можете добавлять вложения

Найти:
Перейти:  
Создано на основе phpBB® Forum Software © phpBB Group
ppkBB3cker v.2.5 © 2008-2019 @ PPK | Icon Theme by Everaldo.com Design Studio
Designed by ST Software.
Русская поддержка phpBB
[ Time : 0.180s | 18 Queries | GZIP : Off ]
Ресурс не предоставляет электронные версии произведений, а занимается лишь коллекционированием и каталогизацией ссылок, присылаемых и публикуемых на форуме нашими читателями. Если вы являетесь правообладателем какого-либо представленного материала и не желаете чтобы ссылка на него находилась в нашем каталоге, свяжитесь с нами и мы незамедлительно удалим её. Файлы для обмена на трекере предоставлены пользователями сайта, и администрация не несёт ответственности за их содержание. Просьба не заливать файлы, защищенные авторскими правами, а также файлы нелегального содержания!
tracker_cron Яндекс.Метрика