Сообщения без ответов | Активные темы Текущее время: 2021-08-01 16:42



Ответить на тему  [ 1 сообщение ] 
Одни дома / How to Deter a Robber (Мария Бисселл) [2020, Комедия, криминал, WEB-DL 1080p / iTunes] 
Автор Сообщение
Почетный пользователь
Почетный пользователь
Аватара пользователя
Раздал: 142.11 ГБ
Скачал: 9.79 ГБ
Ратио: 1013.512


Зарегистрирован: 2020-08-03 09:00
Сообщения: 667
Ответить с цитатой 
#777

Одни дома / How to Deter a Robber


Информация о фильме
Название: Одни дома
Оригинальное название: How to Deter a Robber
Год выхода: 2020
Страна: США
Студия: Ratajack Productions
Продолжительность: 01:24:35
Перевод: Профессиональный многоголосый | iTunes
Жанр: Комедия, криминал

Режиссер: Мария Бисселл

В ролях: Ванесса Марано, Крис Малки, Эбби Кобб, Леа Льюис, Гэбриэлль Картерис, Сонни Валиченти, Джона Рэй, Никки Кроуфорд, Дианна Руни, Арнольд Й. Ким

О фильме:
Ванесса и ее парень Джимми хотели провести выходные вдвоем, уединившись в загородном доме. Но в дом проникла пара грабителей-любителей. Кто кого одолеет, грабители или сладкая парочка ?



Трейлер



Файл
Кодек: x.264
Качество: WEB-DL 1080p | How.to.Deter.A.Robber.2020.1080p.WEB-DL.DD5.1.H.264-CM
Видео: MPEG-4 AVC, 6778 Kбит/с, 1912x792, 23.976 кадр/с
Аудио #1: Русский (АС3, 6 ch, 384 Кбит/с, 48.0 KHz) Профессиональный (многоголосый, закадровый) iTunes
Аудио #2: Английский (АС3, 6 ch, 384 Кбит/с, 48.0 KHz)
Субтитры: Aнглийские

Источник: How.to.Deter.A.Robber.2020.1080p.WEB-DL.DD5.1.H.264-CM
General
Unique ID : 202096797938711703478857237134055103116 (0x980A6D6F6D5D01F493D63A400CB8DA8C)
Complete name : How.to.Deter.A.Robber.2020.WEB-DL.1080p.mkv
Format : Matroska
Format version : Version 4 / Version 2
File size : 4.46 GiB
Duration : 1 h 24 min
Overall bit rate : 7 548 kb/s
Encoded date : UTC 2021-07-20 09:03:40
Writing application : mkvmerge v7.1.0 ('Good Love') 64bit built on Jul 27 2014 13:06:55
Writing library : libebml v1.3.0 + libmatroska v1.4.1

Video
ID : 1
Format : AVC
Format/Info : Advanced Video Codec
Format profile : High@L4
Format settings, CABAC : Yes
Format settings, RefFrames : 5 frames
Codec ID : V_MPEG4/ISO/AVC
Duration : 1 h 24 min
Bit rate : 6 778 kb/s
Width : 1 912 pixels
Height : 792 pixels
Display aspect ratio : 2.40:1
Frame rate mode : Constant
Frame rate : 23.976 (24000/1001) FPS
Color space : YUV
Chroma subsampling : 4:2:0
Bit depth : 8 bits
Scan type : Progressive
Bits/(Pixel*Frame) : 0.187
Stream size : 4.00 GiB (90%)
Language : English
Default : Yes
Forced : No
Color range : Limited
Color primaries : BT.709
Transfer characteristics : BT.709
Matrix coefficients : BT.709

Audio #1
ID : 2
Format : AC-3
Format/Info : Audio Coding 3
Format settings, Endianness : Big
Codec ID : A_AC3
Duration : 1 h 24 min
Bit rate mode : Constant
Bit rate : 384 kb/s
Channel(s) : 6 channels
Channel positions : Front: L C R, Side: L R, LFE
Sampling rate : 48.0 kHz
Frame rate : 31.250 FPS (1536 SPF)
Bit depth : 16 bits
Compression mode : Lossy
Stream size : 232 MiB (5%)
Title : MVO | iTunes
Language : Russian
Service kind : Complete Main
Default : Yes
Forced : No

Audio #2
ID : 3
Format : AC-3
Format/Info : Audio Coding 3
Format settings, Endianness : Big
Codec ID : A_AC3
Duration : 1 h 24 min
Bit rate mode : Constant
Bit rate : 384 kb/s
Channel(s) : 6 channels
Channel positions : Front: L C R, Side: L R, LFE
Sampling rate : 48.0 kHz
Frame rate : 31.250 FPS (1536 SPF)
Bit depth : 16 bits
Compression mode : Lossy
Stream size : 232 MiB (5%)
Title : English
Language : English
Service kind : Complete Main
Default : No
Forced : No

Text #1
ID : 4
Format : UTF-8
Codec ID : S_TEXT/UTF8
Codec ID/Info : UTF-8 Plain Text
Duration : 1 h 16 min
Bit rate : 60 b/s
Count of elements : 1072
Stream size : 34.2 KiB (0%)
Title : English [Full]
Language : English
Default : No
Forced : No

Text #2
ID : 5
Format : UTF-8
Codec ID : S_TEXT/UTF8
Codec ID/Info : UTF-8 Plain Text
Duration : 1 h 22 min
Bit rate : 66 b/s
Count of elements : 1211
Stream size : 40.0 KiB (0%)
Title : English [SDH]
Language : English
Default : No
Forced : No






2021-07-20 23:56
Профиль
  • Торрент
Автор: Amigos Хэш: ---
Добавлен: 2021-07-20 23:56 Приватный: Нет (DHT включён)
Статус: Проверен
Размер: 4.46 ГБ (4 788 383 518 байт)
Изменил:
---
Скачали: 420 (Раздающих: 0%)
Причина:
---
Здоровье: 100%
Сидеров: 274 Личеров: 78
Скорость раздачи: 0 байт/сек Скорость скачивания: 0 байт/сек
Последний сидер: 5 часов 53 минуты 58 секунд назад Последний личер: 5 часов 53 минуты 58 секунд назад
Для скачивания торрента необходимо зарегистрироваться или войти на трекер.
Показать сообщения за:  Поле сортировки  
Ответить на тему   [ 1 сообщение ] 

Кто сейчас на конференции

Сейчас этот форум просматривают: нет зарегистрированных пользователей и гости: 3


Вы не можете начинать темы
Вы не можете отвечать на сообщения
Вы не можете редактировать свои сообщения
Вы не можете удалять свои сообщения
Вы не можете добавлять вложения

Найти:
Перейти:  
Создано на основе phpBB® Forum Software © phpBB Group
ppkBB3cker v.2.5 © 2008-2021 @ PPK | Icon Theme by Everaldo.com Design Studio
Designed by ST Software.
Русская поддержка phpBB
[ Time : 0.208s | 20 Queries | GZIP : Off ]
Ресурс не предоставляет электронные версии произведений, а занимается лишь коллекционированием и каталогизацией ссылок, присылаемых и публикуемых на форуме нашими читателями. Если вы являетесь правообладателем какого-либо представленного материала и не желаете чтобы ссылка на него находилась в нашем каталоге, свяжитесь с нами и мы незамедлительно удалим её. Файлы для обмена на трекере предоставлены пользователями сайта, и администрация не несёт ответственности за их содержание. Просьба не заливать файлы, защищенные авторскими правами, а также файлы нелегального содержания!
tracker_cron Яндекс.Метрика