Сообщения без ответов | Активные темы Текущее время: 2021-12-08 00:52



Ответить на тему  [ 1 сообщение ] 
Королевство драконов / Dragon Kingdom (Саймон Уэллс)[2018, фантастика, приключения, WEB-DL 1080p / IVI] 
Автор Сообщение
Релизер
Релизер
Аватара пользователя
Раздал: 248.07 ГБ
Скачал: 30.67 ГБ
Ратио: 1007.788


Зарегистрирован: 2020-05-07 22:22
Сообщения: 958
Ответить с цитатой 
#777

Королевство драконов / Dragon Kingdom


Информация о фильме
Название: Королевство драконов
Оригинальное название: Dragon Kingdom
Год выхода: 2018
Страна: Великобритания
Студия: Grass Temple Films, High Fliers Films, Hollywood Vision
Продолжительность: 01:25:38
Озвучивание #1: Профессиональное (многоголосое) | RUS | IVI
Озвучивание #2: Профессиональное (многоголосое) | UKR | IVI
Жанр: фантастика, приключения

Режиссер: Саймон Уэллс

В ролях: Росс О’Хеннесси, Бен Лойд-Холмс, Ребекка Дайсон-Смит, Зара Питиан, Джемма Мур, Майк Митчелл, Джон-Пол Гейтс, Ченгиз Дервис, Джессика Джейн Клемент, Линда Луиз Дуан

О фильме:
Принц Фавиан пытается тайно узурпировать власть и призывает на службу армию живых мертвецов и драконов. Однако, его сестре Элизабет чудом удаётся выжить во время разрушения замка. Теперь она должна с помощью двух преданных рыцарей и двух которианских воительниц пробраться на другой конец страны, чтобы предупредить отца и спасти королевство. Но, для этого, им придётся пройти через Тёмное королевство под властью таинственного Магистра.



Файл
Формат: MKV
Качество: WEB-DL 1080p
Видео: MPEG-4 AVC, 4775 Кb/s, 1920x800
Аудио: Russian / Ukrainian: AC3, 384 Kb/s (6 ch)
Субтитры: Нет
Дополнительно: Нет

Complete name : Korolevstvo.drakonov.2018.WEB-DL.1080p.ELEKTRI4KA.UNIONGANG.mkv
Format : Matroska
Format version : Version 4
File size : 3.32 GiB
Duration : 1 h 25 min
Overall bit rate : 5 545 kb/s
Movie name : Korolevstvo drakonov.2018.WEB-DL.1080p.ELEKTRI4KA.UNIONGANG.
Encoded date : UTC 2021-11-13 21:42:09
Writing application : mkvmerge v8.3.0 ('Over the Horizon') 32bit
Writing library : libebml v1.3.1 + libmatroska v1.4.2

Video
ID : 1
Format : AVC
Format/Info : Advanced Video Codec
Format profile : High@L4
Format settings : CABAC / 3 Ref Frames
Format settings, CABAC : Yes
Format settings, Reference frames : 3 frames
Codec ID : V_MPEG4/ISO/AVC
Duration : 1 h 25 min
Bit rate : 4 775 kb/s
Width : 1 920 pixels
Height : 800 pixels
Display aspect ratio : 2.40:1
Frame rate mode : Constant
Frame rate : 25.000 FPS
Color space : YUV
Chroma subsampling : 4:2:0
Bit depth : 8 bits
Scan type : Progressive
Bits/(Pixel*Frame) : 0.124
Stream size : 2.86 GiB (86%)
Default : Yes
Forced : No

Audio #1
ID : 2
Format : AC-3
Format/Info : Audio Coding 3
Commercial name : Dolby Digital
Codec ID : A_AC3
Duration : 1 h 25 min
Bit rate mode : Constant
Bit rate : 384 kb/s
Channel(s) : 6 channels
Channel layout : L R C LFE Ls Rs
Sampling rate : 48.0 kHz
Frame rate : 31.250 FPS (1536 SPF)
Compression mode : Lossy
Stream size : 235 MiB (7%)
Title : MVO (IVI)
Language : Russian
Service kind : Complete Main
Default : Yes
Forced : Yes

Audio #2
ID : 3
Format : AC-3
Format/Info : Audio Coding 3
Commercial name : Dolby Digital
Codec ID : A_AC3
Duration : 1 h 25 min
Bit rate mode : Constant
Bit rate : 384 kb/s
Channel(s) : 6 channels
Channel layout : L R C LFE Ls Rs
Sampling rate : 48.0 kHz
Frame rate : 31.250 FPS (1536 SPF)
Compression mode : Lossy
Stream size : 235 MiB (7%)
Title : MVO (IVI)
Language : Ukrainian
Service kind : Complete Main
Default : No
Forced : No

Релиз группы: &


2021-11-23 01:32
Профиль
  • Торрент
Автор: Klingon Хэш: ---
Добавлен: 2021-11-23 01:32 Приватный: Нет (DHT включён)
Статус: Проверен
Размер: 3.32 ГБ (3 561 410 902 байт)
Изменил:
---
Скачали: 1448 (Раздающих: 0%)
Причина:
---
Здоровье: 100%
Сидеров: 59 Личеров: 8
Скорость раздачи: 0 байт/сек Скорость скачивания: 0 байт/сек
Последний сидер: 16 часов 15 секунд назад Последний личер: 16 часов 15 секунд назад
Для скачивания торрента необходимо зарегистрироваться или войти на трекер.
Показать сообщения за:  Поле сортировки  
Ответить на тему   [ 1 сообщение ] 

Кто сейчас на конференции

Сейчас этот форум просматривают: нет зарегистрированных пользователей и гости: 2


Вы не можете начинать темы
Вы не можете отвечать на сообщения
Вы не можете редактировать свои сообщения
Вы не можете удалять свои сообщения
Вы не можете добавлять вложения

Найти:
Перейти:  
Создано на основе phpBB® Forum Software © phpBB Group
ppkBB3cker v.2.5 © 2008-2021 @ PPK | Icon Theme by Everaldo.com Design Studio
Designed by ST Software.
Русская поддержка phpBB
[ Time : 0.195s | 20 Queries | GZIP : Off ]
Ресурс не предоставляет электронные версии произведений, а занимается лишь коллекционированием и каталогизацией ссылок, присылаемых и публикуемых на форуме нашими читателями. Если вы являетесь правообладателем какого-либо представленного материала и не желаете чтобы ссылка на него находилась в нашем каталоге, свяжитесь с нами и мы незамедлительно удалим её. Файлы для обмена на трекере предоставлены пользователями сайта, и администрация не несёт ответственности за их содержание. Просьба не заливать файлы, защищенные авторскими правами, а также файлы нелегального содержания!
tracker_cron Яндекс.Метрика