Сообщения без ответов | Активные темы Текущее время: 2021-01-18 19:02



Ответить на тему  [ 1 сообщение ] 
Щенячий патруль / PAW Patrol / Сезон: 2 / Серии: 1-26 из 26 (Кейт Чепмэн / Keith Chapman) [2014-2015, мультсериал, детский, семейный, HDTV 1080i] Dub 
Автор Сообщение
Релизер
Релизер
Аватара пользователя
Раздал: 88.92 ГБ
Скачал: 1.75 ГБ
Ратио: 1049.906


Зарегистрирован: 2020-05-15 00:14
Сообщения: 543
Ответить с цитатой 
Щенячий патруль / PAW Patrol


#777

Год выпуска: 2014-2015
Страна: Канада, США
Продолжительность серии: 23 минуты
Перевод: Профессиональный (дублированный) SDI Media
Русские субтитры: нет
Жанр: мультсериал, детский, семейный

Режиссёр: Кейт Чепмэн / Keith Chapman

Роли озвучивали: Деван Коэн, Кристиан Дистефано, Каллан Холли, Alex Thorne, Гейдж Манро, Джули Лемье, Max Calinescu, Дрю Дэвис...

Описание:
Зик Райдер — озорной десятилетний мальчик, талантливый не по годам. Он отлично разбирается в электронике и технике и умело с ней обращается. Его жизнь насыщена и полна бесстрашных приключений. Вместе с шестью веселыми и храбрыми щенятами он создал отважную команду под названием «Щенячий патруль».
Сообща они выполняют спасательные миссии: с удовольствием помогают одинокому котенку, попавшему в беду, или освобождают состав поезда из-под оползня. Любое дело им по плечу. Каждый из щенков команды обладает особым характером и уникальными способностями. Зик и его четвероногие товарищи делают немало благих дел и являются по-настоящему смелыми спасателями.




Семпл: PAW_sample.mkv

Качество: HDTV 1080i
Формат: MKV
Видео: 1920x1080i (16:9), 25.000 fps, AVC, ~5608 Kbps, 0.054 bits/pixel
Аудио 1: Русский, 48.0 KHz, AC3, 2 ch, 192 Kbps
Аудио 2: English, 48.0 KHz, AC3, 2 ch, 192 Kbps
Субтитры: отсутствуют
s2e01. Pups Save the Penguins + Pups Save a Dolphin Pup
s2e02. Pups Save the Space Alien + Pups Save a Flying Frog
s2e03. Pups Save Jake + Pups Save the Parade
s2e04. Pups Save the Diving Bell + Pups Save the Beavers
s2e05. Pups Save a Ghost + Pups Save A Show
s2e06. The New Pup
s2e07. Pups' Jungle Trouble + Pups Save a Herd
s2e08. Pups and the Big Freeze + Pups Save a Basketball Game
s2e09. Pups Save an Ace + Pups Save a Wedding
s2e10.Pups Save a Talent Show + Pups Save the Corn Roast
s2e11a. Pups Leave Marshall Home Alone
s2e11b. Pups Save the Deer
s2e12. Pups Save the Parrot + Pups Save the Queen Bee
s2e13. Pups Save a Mer-Pup
s2e14. Pups Save an Elephant Family + Pups and the Mischievous Kittens
s2e15. Pups Save a Friend+Pups Save a Stowaway
s2e16. Pups Adventures In Babysitting + Pups Save the Fireworks
s2e17. Pups Save a Sniffle + Pups and the Ghost Cabin
s2e18. Pups Save an Adventure + Pups Save a Surprise
s2e19. Pup-Fu!
s2e20. Pups Save the Mayor's Race + Pups Save an Outlaw's Loot
s2e21. Pups Save Walinda + Pups Save a Big Bone
s2e22a. Pups Save a Floundering Francois
s2e22b. Pups Save the Pop-Up Penguins
s2e23. Pups Save a Snowboard Competition + Pups Save a Chicken of the Sea
s2e24. Pups Save a Pizza + Pups Save Skye
s2e25. Pups Save the Woof and Roll Show + Pups Save an Eagle
s2e26. Pups Bark with Dinosaurs
Код:
General
Unique ID                                : 239876432228794849612400045347932324045 (0xB476853781D15A71A843A28B4F3DC0CD)
Complete name                            : s2e01. Pups Save the Space Alien + Pups Save a Flying Frog.rus.eng.mkv
Format                                   : Matroska
Format version                           : Version 4 / Version 2
File size                                : 985 MiB
Duration                                 : 22mn 56s
Overall bit rate                         : 6 003 Kbps
Encoded date                             : UTC 2015-04-23 16:42:16
Writing application                      : mkvmerge v7.8.0 ('River Man') 64bit built on Mar 27 2015 16:31:37
Writing library                          : libebml v1.3.1 + libmatroska v1.4.2
Video
ID                                       : 1
Format                                   : AVC
Format/Info                              : Advanced Video Codec
Format profile                           : High@L4
Format settings, CABAC                   : Yes
Format settings, ReFrames                : 3 frames
Codec ID                                 : V_MPEG4/ISO/AVC
Duration                                 : 22mn 56s
Bit rate                                 : 5 499 Kbps
Width                                    : 1 920 pixels
Height                                   : 1 080 pixels
Display aspect ratio                     : 16:9
Frame rate mode                          : Constant
Frame rate                               : 25.000 fps
Standard                                 : Component
Color space                              : YUV
Chroma subsampling                       : 4:2:0
Bit depth                                : 8 bits
Scan type                                : Interlaced
Scan order                               : Top Field First
Bits/(Pixel*Frame)                       : 0.106
Stream size                              : 903 MiB (92%)
Default                                  : Yes
Forced                                   : No
Color range                              : Limited
Color primaries                          : BT.709
Transfer characteristics                 : BT.709
Matrix coefficients                      : BT.709
Audio #1
ID                                       : 2
Format                                   : AC-3
Format/Info                              : Audio Coding 3
Mode extension                           : HI (hearing impaired)
Format settings, Endianness              : Big
Codec ID                                 : A_AC3
Duration                                 : 22mn 56s
Bit rate mode                            : Constant
Bit rate                                 : 192 Kbps
Channel(s)                               : 2 channels
Channel positions                        : Front: L R
Sampling rate                            : 48.0 KHz
Bit depth                                : 16 bits
Compression mode                         : Lossy
Stream size                              : 31.5 MiB (3%)
Language                                 : Russian
Default                                  : Yes
Forced                                   : No
Audio #2
ID                                       : 3
Format                                   : AC-3
Format/Info                              : Audio Coding 3
Mode extension                           : HI (hearing impaired)
Format settings, Endianness              : Big
Codec ID                                 : A_AC3
Duration                                 : 22mn 56s
Bit rate mode                            : Constant
Bit rate                                 : 192 Kbps
Channel(s)                               : 2 channels
Channel positions                        : Front: L R
Sampling rate                            : 48.0 KHz
Bit depth                                : 16 bits
Compression mode                         : Lossy
Stream size                              : 31.5 MiB (3%)
Language                                 : English
Default                                  : No
Forced                                   : No


2021-01-12 22:45
Профиль
  • Торрент
Автор: Zebra Хэш: ---
Добавлен: 2021-01-12 22:45 Приватный: Нет (DHT включён)
Статус: Проверен
Размер: 24.79 ГБ (26 618 146 170 байт)
Изменил:
---
Скачали: 0 (Раздающих: 0%)
Причина:
---
Здоровье: 100%
Сидеров: 34 Личеров: 11
Скорость раздачи: 0 байт/сек Скорость скачивания: 0 байт/сек
Последний сидер: 16 часов 10 минут 6 секунд назад Последний личер: 16 часов 10 минут 6 секунд назад
Для скачивания торрента необходимо зарегистрироваться или войти на трекер.
Показать сообщения за:  Поле сортировки  
Ответить на тему   [ 1 сообщение ] 

Кто сейчас на конференции

Сейчас этот форум просматривают: нет зарегистрированных пользователей и гости: 2


Вы не можете начинать темы
Вы не можете отвечать на сообщения
Вы не можете редактировать свои сообщения
Вы не можете удалять свои сообщения
Вы не можете добавлять вложения

Найти:
Перейти:  
cron
Создано на основе phpBB® Forum Software © phpBB Group
ppkBB3cker v.2.5 © 2008-2020 @ PPK | Icon Theme by Everaldo.com Design Studio
Designed by ST Software.
Русская поддержка phpBB
[ Time : 0.180s | 18 Queries | GZIP : Off ]
Ресурс не предоставляет электронные версии произведений, а занимается лишь коллекционированием и каталогизацией ссылок, присылаемых и публикуемых на форуме нашими читателями. Если вы являетесь правообладателем какого-либо представленного материала и не желаете чтобы ссылка на него находилась в нашем каталоге, свяжитесь с нами и мы незамедлительно удалим её. Файлы для обмена на трекере предоставлены пользователями сайта, и администрация не несёт ответственности за их содержание. Просьба не заливать файлы, защищенные авторскими правами, а также файлы нелегального содержания!
tracker_cron Яндекс.Метрика